Morgpie - Bored Teen Fucks like an Amazon

Топ за последние дни:
Длительность: 12мин 24сек Просмотров: 14 Добавлено: 1 месяц назад Пользователь:
Описание: Morgpie starts out with blowjob/deepthroat then a little titty fucking,mounts him and rides him cowgirl(with a twist) goes back to deep thoating and gets a throatpie. 60FPS Big.Ass Big.Dick Cumshot HD POV big.boobs big.cock morgpie throatpie cumshot blowjob deepthroat riding 720p tit.fuck cowgirl cum.in.mouth https://www.manyvids.com/Profile/1003114937/Morgpie/Store/Videos/ https://onlyfans.com/morgpie https://www.pornhub.com/model/morgpie https://twitter.com/therealmorgpie https://www.reddit.com/r/Morgpie/ Morgpie - Bored Teen Fucks like an Amazon.mp4 Format : MPEG-4 Format profile : Base Media Codec ID : isom (isom/iso2/avc1/mp41) File size : 164 MiB Duration : 12 min 23 s Overall bit rate mode : Variable Overall bit rate : 1 846 kb/s Video ID : 1 Format : AVC Format/Info : Advanced Video Codec Format profile : High@L3.2 Format settings : CABAC / 4 Ref Frames Format settings, CABAC : Yes Format settings, Reference : 4 frames Codec ID : avc1 Codec ID/Info : Advanced Video Coding Duration : 12 min 23 s Source duration : 12 min 24 s Bit rate : 1 638 kb/s Width : 1 280 pixels Height : 720 pixels Display aspect ratio : 16:9 Frame rate mode : Variable Frame rate : 60.000 FPS Minimum frame rate : 12.000 FPS Maximum frame rate : 240.000 FPS Color space : YUV Chroma subsampling : 4:2:0 Bit depth : 8 bits Scan type : Progressive Bits/(Pixel*Frame) : 0.030 Stream size : 145 MiB (89%) Source stream size : 145 MiB (89%) Writing library : x264 core 155 Audio ID : 2 Format : AAC LC Format/Info : Advanced Audio Codec Low Complexity Codec ID : mp4a-40-2 Duration : 12 min 23 s Bit rate mode : Variable Bit rate : 199 kb/s Maximum bit rate : 480 kb/s Channel(s) : 2 channels Channel layout : L R Sampling rate : 44.1 kHz Frame rate : 43.066 FPS (1024 SPF) Compression mode : Lossy Stream size : 17.6 MiB (11%)